#TITLE:Shining Star;
#SUBTITLE:- Memories Off 3.5 Ending;
#ARTIST:Murata Ayumi;
#TITLETRANSLIT:;
#SUBTITLETRANSLIT:;
#ARTISTTRANSLIT:;
#CREDIT:Tweety;
#BANNER:Star-logo.jpg;
#BACKGROUND:Star-bg.jpg;
#LYRICSPATH:Trance.lrc;
#CDTITLE:cdtitle02.png;
#MUSIC:Shining Star.mp3;
#OFFSET:0.700;
#SAMPLESTART:100.000;
#SAMPLELENGTH:12.000;
#SELECTABLE:YES;
#BPMS:0.000=105.020;
#STOPS:;
#BGCHANGES:39.000=Memories Off 3.5 ED.avi=1.000=0=0=1,
212.000=Star-bg.jpg=1.000=0=0=1,
99999=-nosongbg-=1.000=0=0=0 // don't automatically add -songbackground-
;
// cache tags:
#FIRSTBEAT:8.000;
#LASTBEAT:212.000;
#SONGFILENAME:songs/Otaku's Dream 3rd Anime Mix/[Tweety3187] Shining Star - Memories Off 3.5 ED/Trance.sm;
#HASMUSIC:1;
#HASBANNER:1;
#MUSICLENGTH:126.380;
// end cache tags

//---------------dance-single - ----------------
#NOTES:
     dance-single:
     :
     Hard:
     10:
     0.904,0.944,1.000,0.245,0.609,518.000,251.000,31.000,0.000,0.000:
0000
0000
0000
0000
,
0000
0000
0000
0000
,
0001
1000
0100
0010
,
0001
0010
0100
0010
,
0001
0010
0100
1000
,
0001
0010
0100
0010
,
0001
1000
0010
0100
,
0001
0010
0100
0010
,
2002
0000
0000
0000
,
0000
0000
0000
3003
,
0011
0100
1000
0100
0010
0000
0001
0001
1100
0000
0010
0000
0100
1000
0010
0000
,
0101
0010
1000
0010
1000
0000
0001
0100
1010
0000
0100
0000
0010
0000
1000
0000
,
1100
0010
1000
0100
0100
0000
0010
0010
0101
0000
0010
0000
1000
1000
0100
0000
,
1001
1000
1000
0001
0001
0000
1000
1000
0011
0000
0010
0000
1000
0000
0010
0000
,
0101
1000
0010
1000
0001
0000
0100
0001
1010
0000
0100
0000
0010
0001
0010
0000
,
1100
0010
0010
0010
0101
0000
0100
0001
1010
0000
0100
0000
0010
0000
1000
1000
,
0110
0001
0100
0010
1000
0000
0100
1000
0011
0000
1000
0000
0100
0000
1000
0000
,
0101
1000
0010
1000
0010
0000
0100
0100
1010
0000
0001
0000
0101
0101
0101
0000
,
1001
0100
1010
1100
0010
0000
0011
0101
0010
0000
1010
0000
1100
0000
0110
0010
,
1002
0010
0100
0010
1003
0000
0101
0210
0001
0000
0301
0000
1001
0000
0010
0100
,
1001
0010
0101
0011
1000
0000
0101
1010
0100
0000
1010
0000
1100
0000
1100
0010
,
1002
0100
0010
0100
1003
0000
0101
0120
1000
0000
0130
0000
1100
0000
0100
1000
,
0011
1000
0101
1010
0001
0000
1100
0001
1010
0000
0011
0000
0101
0000
1010
0001
,
0110
1000
0100
0010
1001
0000
0101
0012
1000
0000
0103
0000
0011
0000
1010
0001
,
1010
0100
0011
0001
1100
0000
0110
1000
0201
0000
0310
0000
1002
0000
0103
1020
,
0100
1000
0100
1000
0130
0000
1000
0100
0011
0000
0100
0000
1010
0101
1010
0101
,
1010
0100
1000
0100
0011
0000
0110
1100
0001
0000
1010
0000
0110
0000
0011
1000
,
0201
0010
0001
0010
0301
0000
1010
2100
0001
0000
0010
0000
3100
0000
0100
0100
,
1010
0001
0100
0001
0110
0000
1010
1010
0001
0000
0110
0000
0011
0000
0101
1000
,
0011
0000
0011
0000
0011
0000
0011
0000
1100
0101
1010
1100
0011
0101
1100
0110
,
1001
0000
0110
0000
1020
0100
0001
1000
0031
0000
0110
0000
0011
0100
1001
0010
,
0101
0000
1010
0000
0100
0001
1100
1100
1010
0000
0011
0000
0101
0100
1010
2010
,
0100
0000
0010
0000
3100
0001
0010
0100
1010
0000
0011
0000
0101
1000
0011
0100
,
0011
0000
1100
0000
0001
0100
1010
1010
0101
0000
0011
0000
0101
0010
1100
0012
,
0100
0000
0013
0000
1100
0001
1010
0110
1001
0000
0011
0000
0110
1000
0011
0201
,
0010
0000
0001
0000
0310
0000
0110
0110
1001
0000
0110
0000
0011
0000
0101
1001
,
2002
0000
3003
0022
0000
0033
2200
0000
3300
0000
2010
0000
0100
0010
3001
0010
,
1100
0000
1100
0000
1100
0000
1100
0000
0011
1100
0011
0101
1100
0110
1001
0110
,
0110
0000
1001
0000
2100
0001
0010
0100
3010
0000
1001
0000
1010
0001
0110
1000
,
0011
0000
1100
0000
0001
0010
0101
0101
1100
0000
1010
0000
0011
0001
1100
1200
,
0001
0000
1000
0000
0301
0010
1000
0001
1100
0000
1010
0000
0011
0100
1010
0001
,
1010
0000
0101
0000
0010
0001
1100
0000
0011
0011
0011
0000
1010
0101
1010
0000
,
1010
0000
0100
0000
1010
0000
0011
0011
0011
0000
1000
0000
0101
0000
0010
0000
,
1100
0000
0110
0000
0101
0000
0110
0011
1010
1100
0011
0000
1010
0000
0110
0110
,
0220
0000
0000
0000
0000
0000
0000
0000
0000
0000
0330
0000
0002
0000
0000
0000
0000
0000
0000
0000
0203
0000
0000
0000
2300
0000
0000
0000
3002
0000
0000
0003
,
1010
0000
0100
0000
1010
0000
0011
0100
1010
0100
0010
0000
0101
0000
0110
0010
,
1100
0000
0010
0000
0101
0000
0010
0100
1010
0000
0001
0000
1100
0010
0100
1000
,
0101
0000
0010
0000
1100
0000
1010
0100
0011
1000
0100
0000
0101
0000
0010
0100
,
1001
0010
0100
0000
1001
0000
0100
1000
0011
0100
1000
0000
0110
0110
0110
0110
,
1001
0000
0010
0000
0101
0000
0110
0001
1010
0100
0010
0000
1100
0000
0010
0100
,
0011
0000
1000
0000
0110
0000
0010
1000
0101
0010
0100
0000
1010
0100
0001
1000
,
0110
0000
0010
0000
1100
0000
0011
0100
1010
0100
0001
0000
0110
0001
1000
0001
,
0110
0000
1010
0000
1010
0000
0100
0001
1010
0000
0110
0000
1001
1001
1001
1001
,
0110
0000
0000
0000
;

//---------------dance-single - ----------------
#NOTES:
     dance-single:
     :
     Medium:
     5:
     0.266,0.398,0.237,0.087,0.000,194.000,30.000,11.000,0.000,0.000:
0000
0000
0000
0000
,
0000
0000
0000
0000
,
0000
0000
0000
0000
,
0000
0000
0000
0000
,
0000
0000
0000
0000
,
0000
0000
0000
0000
,
0000
0000
0000
0000
,
0000
0000
0000
0000
,
0000
0000
0000
0000
,
0000
0000
0000
0000
,
1000
0100
1000
0000
0100
0000
0010
0000
,
0100
0001
1000
0010
,
0001
1000
0001
0000
0010
0000
0100
0000
,
0001
1000
0010
0100
,
0010
0100
0010
0000
1000
0000
0001
0000
,
0100
0010
1000
0100
,
1000
0010
1000
0000
0100
0000
1001
0000
,
0120
0130
1000
0001
,
1000
1000
1000
0000
0010
0000
0001
0001
,
0001
0100
0010
1000
,
0100
0100
0100
0000
1000
0000
0010
0010
,
0010
0100
0001
0010
,
0001
0001
0001
0000
0100
0000
0010
0010
,
1001
0110
1001
1100
,
0011
0100
1000
0001
,
1020
1000
1000
1030
,
1000
0010
0100
0001
,
1000
0010
0100
0100
,
0110
1000
0001
0100
,
0021
0000
0031
0000
0010
0010
0010
0010
,
1001
0000
0110
0000
1001
0000
0010
0100
,
0010
0000
1000
0000
0101
0000
1000
1000
,
1000
0010
1001
0110
,
1001
0000
0100
0000
1000
0000
0001
1000
,
0001
0000
0010
0000
0100
0000
0010
0010
,
0020
0100
0100
0130
,
1000
1000
0001
0001
,
0210
0000
0310
0000
1000
1000
1000
1000
,
0011
0000
1100
0000
0011
0000
1000
1000
,
1000
0000
0010
0000
1010
0000
0100
0010
,
0100
0001
0100
0011
,
1100
0000
0011
0000
2001
3001
0102
0103
,
2001
0001
0001
3001
,
0120
0000
0100
0000
0100
0100
0100
0130
,
2002
0000
0000
3003
,
0010
1000
0001
0100
,
0010
0100
0001
1000
,
0001
0001
0100
0100
,
0010
0010
1000
1000
,
0010
0100
0001
1000
,
0010
0100
1000
1000
,
1000
0010
0100
0001
,
0001
0010
0100
0010
,
1000
0000
0000
0000
;

//---------------dance-single - Copied from----------------
#NOTES:
     dance-single:
     Copied from:
     Easy:
     3:
     0.227,0.294,0.158,0.063,0.000,173.000,20.000,8.000,0.000,0.000:
0000
0000
0000
0000
,
0000
0000
0000
0000
,
0000
0000
0000
0000
,
0000
0000
0000
0000
,
0000
0000
0000
0000
,
0000
0000
0000
0000
,
0000
0000
0000
0000
,
0000
0000
0000
0000
,
0000
0000
0000
0000
,
0000
0000
0000
0000
,
0001
0001
0010
0100
,
0010
1000
0001
0100
,
1000
1000
0100
0010
,
1000
0001
0100
0010
,
0100
0100
0001
1000
,
0010
0100
0001
0010
,
0001
0001
0010
1001
,
0200
0310
0001
1000
,
0001
0001
0001
0000
0100
0000
1000
0000
,
1000
0010
0100
0001
,
0010
0010
0010
0000
0001
0000
0100
0000
,
0100
0010
1000
0100
,
1000
1000
1000
0000
0010
0000
0100
0000
,
1001
0100
0001
0001
,
1100
0010
0001
1000
,
0201
0001
0001
0301
,
0001
0100
0010
1000
,
0001
0100
0010
0010
,
0100
0001
1000
0010
,
1200
1300
0010
0100
,
0010
0100
1000
0100
,
0110
0001
1000
0001
,
1010
0100
0001
0100
,
1001
0010
0001
1000
,
1001
0100
0010
0100
,
1001
0100
0100
0100
,
1001
0010
0001
1000
,
0110
0100
0010
0010
,
0110
0001
0100
0001
,
1001
0100
0001
0010
,
0110
1000
0010
0100
,
1001
0100
1002
1003
,
1002
1000
1000
1003
,
0210
0000
0010
0000
0010
0000
0010
0300
,
2002
0000
0000
3003
,
0100
0001
1000
0010
,
0100
0010
1000
0001
,
1000
1000
0010
0010
,
0100
0100
0001
0001
,
0100
0010
1000
0001
,
0100
0010
0001
0001
,
0001
0100
0010
1000
,
1000
0100
0010
0100
,
0001
0000
0000
0000
;

//---------------dance-single - Copied from Copied f----------------
#NOTES:
     dance-single:
     Copied from Copied f:
     Beginner:
     2:
     0.116,0.168,0.000,0.055,0.000,96.000,0.000,7.000,0.000,0.000:
0000
0000
0000
0000
,
0000
0000
0000
0000
,
0000
0000
0000
0000
,
0000
0000
0000
0000
,
0000
0000
0000
0000
,
0000
0000
0000
0000
,
0000
0000
0000
0000
,
0000
0000
0000
0000
,
0000
0000
0000
0000
,
0000
0000
0000
0000
,
0001
0000
0100
0000
,
0100
0000
0001
0000
,
1000
0000
0010
0000
,
1000
0000
0010
0000
,
0010
0000
0001
0000
,
0100
0000
0001
0000
,
0001
0000
0100
1000
,
0020
0030
0001
0000
,
0001
0001
0000
0000
,
1000
0100
0000
0000
,
0100
0100
0000
0000
,
0010
0100
0000
0000
,
1000
1000
0000
0000
,
0001
0001
0000
0000
,
1000
0100
0000
0000
,
0020
0000
0001
0030
,
0001
0000
0100
0000
,
0001
0000
0100
0000
,
0010
0000
1000
0000
,
0020
1000
1000
1030
,
0100
0010
1000
0000
,
0100
0000
1000
0001
,
0100
0000
0001
0000
,
1000
0000
0001
0010
,
1000
0000
0100
0010
,
0001
0000
0010
0000
,
0010
0000
0010
0000
,
0001
0001
0001
0001
,
1000
0100
0010
0000
,
0001
0000
0001
1000
,
0100
0000
0100
0000
,
0001
0000
2000
0000
,
3002
0000
1000
0003
,
0020
0000
0000
0000
,
2030
0000
0000
3000
,
0010
0000
1000
0000
,
0010
0000
1000
0000
,
1000
0000
0100
0000
,
0010
0000
0001
0000
,
0010
0000
1000
0000
,
0010
0000
0001
0000
,
0001
0000
0100
0000
,
1000
0000
0100
0000
,
0001
0000
0000
0000
;
